Morrissey 2015-06-17 Washington, DC

Reply to topic
 
Author Message

iisaphd ®

Gender: Unknown

Longevity: 8 years 9 months

Posts: 119

Location: USA

Post 29-Aug-2015 20:47

[Quote]

Here's a DVD I authored from a video posted to youtube. Details regarding the source:
Input #0, mov,mp4,m4a,3gp,3g2,mj2, from 'Morrissey - Full Show, Live at Echo Stage in Washington DC on 6_17_2015 - YouTube [720p].mp4':
Metadata:
major_brand : mp42
minor_version : 0
compatible_brands: isommp42
creation_time : 2015-07-25 19:11:24
Duration: 01:28:09.78, start: 0.000000, bitrate: 3165 kb/s
Stream #0:0(und): Video: h264 (High) (avc1 / 0x31637661), yuv420p, 1280x720 [SAR 1:1 DAR 16:9], 2971 kb/s, 29.97 fps, 29.97 tbr, 30k tbn, 59.94 tbc (default)
Metadata:
handler_name : VideoHandler
Stream #0:1(eng): Audio: aac (LC) (mp4a / 0x6134706D), 44100 Hz, stereo, fltp, 192 kb/s (default)
Metadata:
creation_time : 2015-07-25 19:13:22
handler_name : IsoMedia File Produced by Google, 5-11-2011
The DVD is in NTSC format. Chapters were added every 5 minutes. Audio is a little low, but I didn't alter it in the DVD creation. If you'd rather just have the mp4 video, I'm pretty sure it's still on youtube.
Set list:
Suedehead
Staircase at the University
Ganglord
World Peace Is None of Your Business
Kiss Me a Lot
Istanbul
Speedway
Will Never Marry
One of Our Own
The Bullfighter Dies
Scandinavia
Now My Heart Is Full
The World Is Full of Crashing Bores
I Will See You in Far-Off Places
I'm Throwing My Arms Around Paris
Everyday Is Like Sunday
Neal Cassady Drops Dead
Meat Is Murder
What She Said
Encore:
First of the Gang to Die
Post show discussion:
http://www.morrissey-solo.com/content/2594-Washingt...-2015)-post-show
[Profile] [PM]

tonythepony

Gender: Unknown

Longevity: 10 years

Posts: 171

Post 03-Sep-2015 18:22 (after 4 days)

[Quote]

thanks
[Profile] [PM]
Display posts:    
Reply to topic

Current time is: 21-Oct 15:44

All times are UTC ± 0



You cannot post new topics in this forum
You cannot reply to topics in this forum
You cannot edit your posts in this forum
You cannot delete your posts in this forum
You cannot vote in polls in this forum
You cannot attach files in this forum
You cannot download files in this forum