The Culture Show - Not Like Any Other Love - The Smiths (1080p BluRay)

Reply to topic
 
Author Message

DavidA ®

Gender: Unknown

Longevity: 11 years

Posts: 1406

Post 16-May-2013 14:43

[Quote]

Re-seeded with permission from simonlofc at HungerCity.
Not Like Any Other Love
The Smiths
BBC Documentary
Broadcast BBCHD 12th May 2013
AVCHD
It's 30 years since Manchester four-piece The Smiths changed the face of British pop with their debut single Hand In Glove. In this half-hour Culture Show special, fellow Mancunian and lifelong fan Tim Samuels sets out to find out why The Smiths have such a special place in the hearts of a generation of Brits. The Smiths were only around for five years in the mid-eighties, but to this day the sentiment their music evokes is strong. Samuels pays visits to a variety of dedicated fans including fashion designer Wayne Hemingway, poet Simon Armitage, Labour MP Kerry McCarthy and Oasis songwriter Noel Gallagher to analyse the look, the lyrics, the issues and the riffs that made The Smiths Britain's first, and arguably best ever, indie rock band.
Menu and chapters
30 min
Linage DVB-S2>Ccam>HDD>Videoredo>Multiavchd>you
Format : BDAV
Format/Info : Blu-ray Video
File size : 1.61 GiB
Duration : 29mn 18s
Overall bit rate mode : Variable
Overall bit rate : 7 864 Kbps
Maximum Overall bit rate : 35.5 Mbps
Video
ID : 4113 (0x1011)
Menu ID : 1 (0x1)
Format : AVC
Format/Info : Advanced Video Codec
Format profile : High@L4.0
Format settings, CABAC : Yes
Format settings, ReFrames : 4 frames
Codec ID : 27
Duration : 29mn 18s
Bit rate mode : Variable
Bit rate : 7 352 Kbps
Maximum bit rate : 40.0 Mbps
Width : 1 920 pixels
Height : 1 080 pixels
Display aspect ratio : 16:9
Frame rate : 25.000 fps
Color space : YUV
Chroma subsampling : 4:2:0
Bit depth : 8 bits
Scan type : MBAFF
Bits/(Pixel*Frame) : 0.142
Stream size : 1.50 GiB (93%)
Color primaries : BT.709-5, BT.1361, IEC 61966-2-4, SMPTE RP177
Transfer characteristics : BT.709-5, BT.1361
Matrix coefficients : BT.709-5, BT.1361, IEC 61966-2-4 709, SMPTE RP177
Audio
ID : 4352 (0x1100)
Menu ID : 1 (0x1)
Format : AC-3
Format/Info : Audio Coding 3
Mode extension : CM (complete main)
Codec ID : 129
Duration : 29mn 18s
Bit rate mode : Constant
Bit rate : 192 Kbps
Channel(s) : 2 channels
Channel positions : Front: L R
Sampling rate : 48.0 KHz
Bit depth : 16 bits
Compression mode : Lossy
Stream size : 40.2 MiB (2%)
Language : English
IMPORTANT INFORMATION:
Thanks for this tutorial STLBlues
This is a High Definition video which can be burned to a standard DVD-R or DVD+R blank
disc. The resulting disc can only be played in compatible Blu-Ray devices such as a
standalone Blu-Ray player, Playstation 3, or BD-ROM drive. This cannot be played in any
DVD player, including some DVD-ROM drives, after it's been burned. However, the files can
always be dumped back onto a computer hard-drive after it's been burned with any DVD-ROM or
BD-ROM drive. For computer playback, you must have the appropriate hardware and software
applications. At a minimum, you will need a 2.0Ghz Dual Core CPU with at least 256MB of
graphics memory. There is also the option of recording to a solid-state memory card (SDHC,
Memory Stick), then played from many Blu-Ray disc players, PS3, or select Panasonic HDTV's.
PLEASE NOTE:
Your standalone Blu-Ray player must be capable of AVCHD playback. Most Blu-Ray players are
capable of doing this. Although US PS3 probably wont play it.All other PS3s will play it.
BURNING INFORMATION:
Any tool to burn a disk will do, but it must be able to burn a DVD using the UDF 2.50 file
system. The UDF 2.60 file system is also acceptable. Nero Burning ROM can do this starting
from version 7. You can also use free tools like ImgBurn, which can be downloaded from
www.imgburn.com.
Imgburn Step-By-Step Instructions:
* First, switch to "Build" mode by selecting Mode > Build from the main menu.
* For source, select the directory that contains BDMV directory.
* For target specify any name and location of your liking, this is where the disc image will
be written.
* Select Options page in the tabbed notebook on the right, specify UDF file system, revision
2.50.
* Keep "Recurse subdirectories" checked.
* Press the folder icon > disc icon button to write the image.
After this process is done, locate where you saved the image file (.iso), then burn to a
regular DVD-R or DVD+R disc. If using a standalone Blu-Ray player, make sure it will play
which ever disc (-R or +R) you are using. I recommend using a burning speed of 4x or less.
Once completed, you now have a high definition video on a regular DVD ready to be played on
your favorite Blu-Ray device.
[Profile] [PM]

anovella

Gender: Unknown

Longevity: 11 years

Posts: 1012

Location: Barcelona

Post 17-May-2013 08:32 (after 17 hours)

[Quote]

Many thanks David and simonlofc!!
:D
[Profile] [PM]

lavinia

Gender: Unknown

Longevity: 9 years 1 month

Posts: 11

Post 17-May-2013 09:07 (after 34 minutes)

[Quote]

thank you :)
[Profile] [PM]

kd.jimenez

Gender: Unknown

Longevity: 5 years 11 months

Posts: 26

Post 17-May-2013 23:19 (after 14 hours)

[Quote]

THANKS A LOT!!!
[Profile] [PM]

Stubs

Gender: Unknown

Longevity: 10 years

Posts: 203

Location: A little city called Kulmbach

Post 21-May-2013 06:07 (after 3 days)

[Quote]

Hi David,
thank you very very very much ...
It's great to see that they're not forgotten after all these years.
Greetings
Stubs
[Profile] [PM]

mtlhed

Gender: Unknown

Longevity: 6 years 10 months

Posts: 51

Post 19-Nov-2013 08:44 (after 5 months 29 days)

[Quote]

Thanks, this looks great!
[Profile] [PM]

Dr Wolfenstein

Gender: Unknown

Longevity: 10 years

Posts: 249

Location: Mid Wales

Post 19-Nov-2013 13:16 (after 4 hours)

[Quote]

You sir, I thank you once again!
[Profile] [PM]

tonythepony

Gender: Unknown

Longevity: 10 years

Posts: 168

Post 25-Nov-2013 11:17 (after 5 days)

[Quote]

thank you very much !
[Profile] [PM]
Display posts:    
Reply to topic

Current time is: 21-Jul 12:55

All times are UTC ± 0



You cannot post new topics in this forum
You cannot reply to topics in this forum
You cannot edit your posts in this forum
You cannot delete your posts in this forum
You cannot vote in polls in this forum
You cannot attach files in this forum
You cannot download files in this forum