The Smiths Wolverhampton Civic Hall 15th October 1986

Reply to topic
 
Author Message

soundsville ®

Gender: Unknown

Longevity: 6 years 8 months

Posts: 35

Location: Sydney

Post 08-May-2011 03:52

[Quote]

15 October 1986
Civic Hall, Wolverhampton
The Queen Is Dead
Panic
I Want The One I Can't Have
Vicar In A Tutu
There Is A Light That Never Goes Out
Ask
(Marie's The Name) His Latest Flame/Rusholme Ruffians
Frankly, Mr. Shankly
The Boy With The Thorn In His Side
What She Said (with Rubber Ring intro and outro)
Is It Really So Strange?
Never Had No One Ever
Cemetry Gates
London
Meat Is Murder
I Know It's Over
/The Draize Train
/How Soon Is Now?
//Still Ill
//Bigmouth Strikes Again
I found this hiding amongst all sorts of crap and perhaps I should have left it there. Contrary to popular opinion I thought this gig was awful probably based on the idiots I was surrounded by. I just remember it was uncomfortable and filled with people singing snatches of lyrics so off key as to be wince inducing. The beginning of the tape is screwed up, I'm not sure what happened, I think the microphone was knocked out half way so the contact was poor.
It affected The Queen is Dead and Panic with 30 seconds of silence in the middle of Panic. I seem to remember we had a decent curry afterwards this for me being the highlight of this trip to Wolverhampton..............oh that and the video of course...........
[Profile] [PM]

monsterH

Gender: Unknown

Longevity: 11 years

Posts: 684

Post 08-May-2011 04:59 (after 1 hour 7 minutes)

[Quote]

Paul - Thanks for the many postings you've done over the last few days. It is all very much appreciated!
[Profile] [PM]

famouswhendead

Gender: Unknown

Longevity: 11 years

Posts: 329

Post 08-May-2011 10:03 (after 5 hours)

[Quote]

Amazing sound !!! Thank you very much
Steve, you should do the Wolverhampton DVD again with this audio :D
[Profile] [PM]

steve

Gender: Unknown

Longevity: 11 years

Posts: 399

Post 08-May-2011 10:49 (after 46 minutes)

[Quote]

Definitely something for the list. I had forgotten you had recorded this as we never put it out on the stall ... I guess we thought it wasn't worth it.
[Profile] [PM]

bonadrag

Gender: Unknown

Longevity: 11 years

Posts: 168

Post 08-May-2011 15:59 (after 5 hours)

[Quote]

many thanks , Paul
[Profile] [PM]

DavidA

Gender: Unknown

Longevity: 11 years

Posts: 1406

Post 08-May-2011 18:44 (after 2 hours 44 minutes)

[Quote]

Lovely. I love the crowd's monotone accompaniment in the intro of Frankly Mr Shankly :roll:
DVD companion piece here, BTW.
[Profile] [PM]

XAVeRY

Gender: Unknown

Longevity: 9 years 6 months

Posts: 160

Location: Wroclaw

Post 08-May-2011 18:54 (after 10 minutes)

[Quote]

Let this cuesheet be my way of saying "thank you".
Also, I absolutely LOVE the guys who were standing next to you. I can see how annoying it must've been to actually stand next to them, though. :P
[code:1]
REM GENRE "Rock"
REM DATE "1986-10-15"
PERFORMER "The Smiths"
TITLE "1986-10-15 Civic Hall, Wolverhampton [Soundsville's Paul Master]"
FILE "The Smiths Wolverhampton Civic Hall 15th October 1986.flac" WAVE
TRACK 01 AUDIO
TITLE "intro music"
INDEX 01 00:00:00
TRACK 02 AUDIO
TITLE "The Queen Is Dead"
INDEX 01 01:24:17
TRACK 03 AUDIO
TITLE "Panic"
INDEX 01 05:37:74
TRACK 04 AUDIO
TITLE "I Want The One I Can't Have"
INDEX 01 09:00:49
TRACK 05 AUDIO
TITLE "Vicar in a Tutu"
INDEX 01 12:42:51
TRACK 06 AUDIO
TITLE "There Is a Light That Never Goes Out"
INDEX 01 15:34:20
TRACK 07 AUDIO
TITLE "Ask"
INDEX 01 19:41:27
TRACK 08 AUDIO
TITLE "Rusholme Ruffians"
INDEX 01 22:52:09
TRACK 09 AUDIO
TITLE "Frankly, Mr. Shankly"
INDEX 01 27:02:52
TRACK 10 AUDIO
TITLE "The Boy With the Thorn in His Side"
INDEX 01 29:50:57
TRACK 11 AUDIO
TITLE "Rubber Ring (intro)"
INDEX 01 33:46:12
TRACK 12 AUDIO
TITLE "What She Said"
INDEX 01 34:10:29
TRACK 13 AUDIO
TITLE "Rubber Ring (outro)"
INDEX 01 36:13:22
TRACK 14 AUDIO
TITLE "Is It Really So Strange?"
INDEX 01 37:50:48
TRACK 15 AUDIO
TITLE "Never Had No One Ever"
INDEX 01 41:17:35
TRACK 16 AUDIO
TITLE "Cemetry Gates"
INDEX 01 44:14:36
TRACK 17 AUDIO
TITLE "London"
INDEX 01 47:12:17
TRACK 18 AUDIO
TITLE "Meat Is Murder"
INDEX 01 49:40:35
TRACK 19 AUDIO
TITLE "I Know It's Over"
INDEX 01 55:39:71
TRACK 20 AUDIO
TITLE "The Draize Train"
INDEX 01 63:01:09
TRACK 21 AUDIO
TITLE "How Soon Is Now?"
INDEX 01 67:16:71
TRACK 22 AUDIO
TITLE "Still Ill"
INDEX 01 72:50:46
TRACK 23 AUDIO
TITLE "Bigmouth Strikes Again"
INDEX 01 77:00:03
[/code:1]
-D
[Profile] [PM]

anovella

Gender: Unknown

Longevity: 11 years

Posts: 1014

Location: Barcelona

Post 08-May-2011 21:09 (after 2 hours 14 minutes)

[Quote]

many many thanks!!! :D
[Profile] [PM]

georgethetwentythird

Gender: Unknown

Longevity: 6 years 6 months

Posts: 52

Location: Hull UK

Post 09-May-2011 09:01 (after 11 hours)

[Quote]

Thanks again :)
Tim
[Profile] [PM]

crazycol

Gender: Male

Longevity: 7 years 9 months

Posts: 161

Location: Southampton

Post 14-Jul-2017 15:53 (after 6 years 2 months)

[Quote]

Many thanks for all your shares.
[Profile] [PM]

jyk77

Gender: Unknown

Longevity: 6 years 8 months

Posts: 3

Post 15-Jul-2017 10:09 (after 18 hours)

[Quote]

thanks!!
[Profile] [PM]
Display posts:    
Reply to topic

Current time is: 19-Nov 14:09

All times are UTC ± 0



You cannot post new topics in this forum
You cannot reply to topics in this forum
You cannot edit your posts in this forum
You cannot delete your posts in this forum
You cannot vote in polls in this forum
You cannot attach files in this forum
You cannot download files in this forum