The Smiths Glasgow Barrowland 16th July 1986 Different Source

Go to page :  1, 2  Next

Reply to topic
 
Author Message

soundsville ®

Gender: Unknown

Longevity: 6 years 6 months

Posts: 35

Location: Sydney

Post 07-May-2011 09:52

[Quote]

OK not sure about this but basically a completely different recording of this gig, I don't think any copies were made of this as we used Steve's recording for the stall in Camden.
I recorded this from the mixing desk position at this concert as these Glasgow gigs were notoriously rambunctious. You can hear Grant ask me if I had any spare cassettes right at the beginning of the show which gives a little insight into his attitude towards recording the Smiths......he knew we were there to record the shows and he was really half arsed about recording them himself. I kind of like this recording, it sounded good playing it back in the car. It is direct from the master tape which has held up pretty well.
I'm digging around to see what else I can find.
[Profile] [PM]

famouswhendead

Gender: Unknown

Longevity: 11 years

Posts: 329

Post 07-May-2011 09:57 (after 5 minutes)

[Quote]

Thank you very much Paul. Nice surprise
[Profile] [PM]

waterisnat

Gender: Unknown

Longevity: 11 years

Posts: 224

Post 07-May-2011 12:20 (after 2 hours 22 minutes)

[Quote]

Many thanks indeed!
[Profile] [PM]

georgethetwentythird

Gender: Unknown

Longevity: 6 years 4 months

Posts: 49

Location: Hull UK

Post 07-May-2011 14:16 (after 1 hour 56 minutes)

[Quote]

Many thanks for this classic show :)
Tim
[Profile] [PM]

Tono

Gender: Unknown

Longevity: 8 years 7 months

Posts: 21

Post 07-May-2011 19:32 (after 5 hours)

[Quote]

Thanx for this show and the other ones.
[Profile] [PM]

XAVeRY

Gender: Unknown

Longevity: 9 years 4 months

Posts: 160

Location: Wroclaw

Post 07-May-2011 19:36 (after 3 minutes)

[Quote]

And a cuesheet from me.
[code:1]
REM GENRE "Rock"
REM DATE "1986-07-16"
PERFORMER "The Smiths"
TITLE "1986-07-16 Barrowlands, Glasgow"
FILE "The Smiths Glasgow Barrowland 16th July 1986 soundsville 2 Master.flac" WAVE
TRACK 01 AUDIO
TITLE "pre intro"
INDEX 01 00:00:00
TRACK 02 AUDIO
TITLE "intro music"
INDEX 01 00:52:57
TRACK 03 AUDIO
TITLE "Bigmouth Strikes Again"
INDEX 01 02:41:62
TRACK 04 AUDIO
TITLE "Panic"
INDEX 01 06:09:23
TRACK 05 AUDIO
TITLE "Vicar in a Tutu"
INDEX 01 09:40:12
TRACK 06 AUDIO
TITLE "Frankly, Mr. Shankly"
INDEX 01 12:54:43
TRACK 07 AUDIO
TITLE "There Is a Light That Never Goes Out"
INDEX 01 16:26:02
TRACK 08 AUDIO
TITLE "Ask"
INDEX 01 20:39:72
TRACK 09 AUDIO
TITLE "I Want The One I Can't Have"
INDEX 01 24:15:55
TRACK 10 AUDIO
TITLE "Never Had No One Ever"
INDEX 01 28:27:46
TRACK 11 AUDIO
TITLE "Cemetry Gates"
INDEX 01 32:10:34
TRACK 12 AUDIO
TITLE "The Boy With The Thorn in His Side"
INDEX 01 35:04:40
TRACK 13 AUDIO
TITLE "Is It Really So Strange?"
INDEX 01 39:07:71
TRACK 14 AUDIO
TITLE "Shakespeare's Sister"
INDEX 01 42:15:35
TRACK 15 AUDIO
TITLE "What She Said"
INDEX 01 45:06:70
TRACK 16 AUDIO
TITLE "That Joke Isn't Funny Anymore"
INDEX 01 48:42:41
TRACK 17 AUDIO
TITLE "The Queen Is Dead"
INDEX 01 54:11:61
TRACK 18 AUDIO
TITLE "encore break"
INDEX 01 59:56:12
TRACK 19 AUDIO
TITLE "I Know It's Over"
INDEX 01 63:04:23
TRACK 20 AUDIO
TITLE "Rusholme Ruffians"
INDEX 01 70:59:04
TRACK 21 AUDIO
TITLE "William, It Was Really Nothing"
INDEX 01 74:55:56
[/code:1]
Endless thanks,
-D
[Profile] [PM]

monsterH

Gender: Unknown

Longevity: 11 years

Posts: 682

Post 07-May-2011 20:01 (after 25 minutes)

[Quote]

Really appreciate this Paul. Many thanks!
[Profile] [PM]

pjlm

Gender: Unknown

Longevity: 11 years

Posts: 307

Location: Montreal

Post 08-May-2011 00:59 (after 4 hours)

[Quote]

Thanks Paul. I have this recording which I've been wanting to put up here forever but never did because I suspected it was yours and that one day you or Steve would put it up. Mine's on a cd, split intro tracks. I may actually have gotten it from Steve a long time ago. There is another one I've been withholding for some time, and which may also be yours. It's from Brighton Dome 1985.03.07.
Stephane
[Profile] [PM]

soundsville ®

Gender: Unknown

Longevity: 6 years 6 months

Posts: 35

Location: Sydney

Post 08-May-2011 01:26 (after 27 minutes)

[Quote]

I'm not sure if the Brighton Dome one is mine, I can't find the master, maybe Steve has it or it's hidden in the cardboard jungle that is my attic.
[Profile] [PM]

steve

Gender: Unknown

Longevity: 11 years

Posts: 399

Post 08-May-2011 10:53 (after 9 hours)

[Quote]

I have that one.
I also have your masters of Guildford and Reading that I haven't transferred yet
[Profile] [PM]

bonadrag

Gender: Unknown

Longevity: 11 years

Posts: 168

Post 08-May-2011 16:07 (after 5 hours)

[Quote]

merci Paul
[Profile] [PM]

DavidA

Gender: Unknown

Longevity: 11 years

Posts: 1406

Post 08-May-2011 18:51 (after 2 hours 44 minutes)

[Quote]

Thanks Paul.
[Profile] [PM]

anovella

Gender: Unknown

Longevity: 11 years

Posts: 1012

Location: Barcelona

Post 08-May-2011 21:04 (after 2 hours 12 minutes)

[Quote]

thanks a lot!!!
[Profile] [PM]

sissi

Gender: Unknown

Longevity: 7 years 8 months

Posts: 72

Location: rome

Post 09-May-2011 16:20 (after 19 hours)

[Quote]

thanks paul!
[Profile] [PM]

mercyc10

Gender: Unknown

Longevity: 5 years 9 months

Posts: 2

Location: Largs

Post 10-Dec-2011 23:14 (after 7 months 1 day)

[Quote]

what a night this was the barrowlands crowd were rocking, cant wait to hear the show again lost my tape years ago smashed up by an ex how i love the internet for getting stuff like this again many many many thanx :mrgreen:
[Profile] [PM]
Display posts:    
Reply to topic

Current time is: 21-Sep 06:51

All times are UTC ± 0



You cannot post new topics in this forum
You cannot reply to topics in this forum
You cannot edit your posts in this forum
You cannot delete your posts in this forum
You cannot vote in polls in this forum
You cannot attach files in this forum
You cannot download files in this forum