Morrissey - 25 LIVE 2013 (MKV)

Reply to topic
 
Author Message

dvillablancap ®

Gender: Unknown

Longevity: 18 days

Posts: 1

Post 01-Nov-2017 19:30

[Quote]

Morrissey.25.Live.2013.1080p.AMZN.WEBRip.DDP5.1.x264
"Morrissey performs an intimate show at Hollywood High School in Los Angeles on March 2| 2013."

Screenshots:






Show MediaInfo:
Video
ID : 1
Format : AVC
Format/Info : Advanced Video Codec
Format profile : High@L4
Format settings, CABAC : Yes
Format settings, ReFrames : 4 frames
Codec ID : V_MPEG4/ISO/AVC
Duration : 1 h 32 min
Bit rate mode : Variable
Bit rate : 8 888 kb/s
Maximum bit rate : 15.0 Mb/s
Width : 1 920 pixels
Height : 872 pixels
Display aspect ratio : 2.2:1
Original display aspect ratio : 2.2:1
Frame rate mode : Constant
Frame rate : 23.976 (24000/1001) FPS
Color space : YUV
Chroma subsampling : 4:2:0
Bit depth : 8 bits
Scan type : Progressive
Bits/(Pixel*Frame) : 0.221
Stream size : 5.71 GiB (93%)
Default : Yes
Forced : No
Color range : Limited
Color primaries : BT.709
Transfer characteristics : BT.709
Matrix coefficients : BT.709
Audio
ID : 2
Format : E-AC-3
Format/Info : Enhanced Audio Coding 3
Format settings, Endianness : Big
Codec ID : A_EAC3
Duration : 1 h 32 min
Bit rate mode : Constant
Bit rate : 640 kb/s
Channel(s) : 6 channels
Channel positions : Front: L C R, Side: L R, LFE
Sampling rate : 48.0 kHz
Frame rate : 187.500 FPS (256 spf)
Compression mode : Lossy
Stream size : 421 MiB (7%)
Language : English
Service kind : Complete Main
Default : Yes
Forced : No
Size: 6.13 GB
[Profile] [PM]
Display posts:    
Reply to topic

Current time is: 20-Nov 03:54

All times are UTC ± 0



You cannot post new topics in this forum
You cannot reply to topics in this forum
You cannot edit your posts in this forum
You cannot delete your posts in this forum
You cannot vote in polls in this forum
You cannot attach files in this forum
You cannot download files in this forum