The Culture Show - Not Like Any Other Love - The Smiths (720p WebRip)

Reply to topic
 
Author Message

DavidA ®

Gender: Unknown

Longevity: 11 years

Posts: 1406

Post 14-May-2013 22:57

[Quote]

It's 30 years since Manchester four-piece The Smiths changed the face of British pop with their debut single Hand In Glove. In this half-hour Culture Show special, fellow Mancunian and lifelong fan Tim Samuels sets out to find out why The Smiths have such a special place in the hearts of a generation of Brits. The Smiths were only around for five years in the mid-eighties, but to this day the sentiment their music evokes is strong. Samuels pays visits to a variety of dedicated fans including fashion designer Wayne Hemingway, poet Simon Armitage, Labour MP Kerry McCarthy and Oasis songwriter Noel Gallagher to analyse the look, the lyrics, the issues and the riffs that made The Smiths Britain's first, and arguably best ever, indie rock band.
General
Complete name : The Culture Show Not Like Any Other Love The Smiths - 1280x720 2800K.mp4
Format : MPEG-4
Format profile : Base Media
Codec ID : isom
File size : 315 MiB
Duration : 29mn 23s
Overall bit rate mode : Constant
Overall bit rate : 1 500 Kbps
Writing application : Lavf54.63.104
Video
ID : 1
Format : AVC
Format/Info : Advanced Video Codec
Format profile : Main@L3.0
Format settings, CABAC : Yes
Format settings, ReFrames : 4 frames
Codec ID : avc1
Codec ID/Info : Advanced Video Coding
Duration : 29mn 23s
Bit rate mode : Constant
Bit rate : 1 404 Kbps
Width : 832 pixels
Height : 468 pixels
Display aspect ratio : 16:9
Frame rate mode : Constant
Frame rate : 25.000 fps
Standard : PAL
Color space : YUV
Chroma subsampling : 4:2:0
Bit depth : 8 bits
Scan type : Progressive
Bits/(Pixel*Frame) : 0.144
Stream size : 295 MiB (93%)
Audio
ID : 2
Format : AAC
Format/Info : Advanced Audio Codec
Format profile : HE-AAC / LC
Codec ID : 40
Duration : 29mn 23s
Duration_LastFrame : -1ms
Bit rate mode : Constant
Bit rate : 96.0 Kbps
Channel(s) : 2 channels
Channel positions : Front: L R
Sampling rate : 48.0 KHz / 24.0 KHz
Compression mode : Lossy
Stream size : 19.9 MiB (6%)
[Profile] [PM]

DavidA ®

Gender: Unknown

Longevity: 11 years

Posts: 1406

Post 14-May-2013 22:59 (after 2 minutes)

[Quote]

[Profile] [PM]

DavidA ®

Gender: Unknown

Longevity: 11 years

Posts: 1406

Post 15-May-2013 00:46 (after 1 hour 46 minutes)

[Quote]

Here's the moz-solo thread.
I've asked the archivist where he got the behind the stage footage shown at 27:50.
[Profile] [PM]

ravenslament.

Gender: Unknown

Longevity: 8 years 5 months

Posts: 310

Location: in the darkness

Post 15-May-2013 05:48 (after 5 hours)

[Quote]

thanks david
[Profile] [PM]

hipsterdisco

Gender: Unknown

Longevity: 6 years 7 months

Posts: 193

Location: Provincially Shipwrecked

Post 16-May-2013 12:24 (after 1 day 6 hours)

[Quote]

That intro ! ツ
[Profile] [PM]

wesker

Gender: Unknown

Longevity: 4 years 11 months

Posts: 18

Location: manila

Post 21-May-2013 12:03 (after 4 days)

[Quote]

thaks..
[Profile] [PM]

willisboy23

Gender: Unknown

Longevity: 5 years 5 months

Posts: 134

Post 15-Jun-2015 07:20 (after 2 years)

[Quote]

Thank you, very much!!
[Profile] [PM]

bclark93

Gender: Unknown

Longevity: 11 years

Posts: 580

Post 31-Oct-2015 03:54 (after 4 months 15 days)

[Quote]

excellent! many thanks!!
[Profile] [PM]
Display posts:    
Reply to topic

Current time is: 21-Sep 07:00

All times are UTC ± 0



You cannot post new topics in this forum
You cannot reply to topics in this forum
You cannot edit your posts in this forum
You cannot delete your posts in this forum
You cannot vote in polls in this forum
You cannot attach files in this forum
You cannot download files in this forum